#TITLE:Fire Works Techno Mix;
#SUBTITLE:LIVEVN TEAM;
#ARTIST:Notes By [R]Nhoc;
#TITLETRANSLIT:;
#SUBTITLETRANSLIT:;
#ARTISTTRANSLIT:;
#CREDIT:;
#BANNER:FW-bn.jpg;
#BACKGROUND:Untitled-1.jpg;
#LYRICSPATH:;
#CDTITLE:;
#MUSIC:[SM] Fireworks.mp3;
#OFFSET:0.000;
#SAMPLESTART:100.000;
#SAMPLELENGTH:12.000;
#SELECTABLE:YES;
#BPMS:0.000=142.020;
#STOPS:268.250=0.200
,268.500=0.400
,268.750=0.200
;
#BGCHANGES:0.000=Untitled-1.jpg=1.000=1=1=1,
99999=-nosongbg-=1.000=0=0=0 // don't automatically add -songbackground-
;
// cache tags:
#FIRSTBEAT:12.000;
#LASTBEAT:502.250;
#SONGFILENAME:Songs/Music V.I.P ^_^/[SM] Fireworks/[SM] Fireworks.sm;
#HASMUSIC:1;
#HASBANNER:1;
#MUSICLENGTH:216.293;
// end cache tags

//---------------dance-single - ----------------
#NOTES:
     dance-single:
     :
     Hard:
     12:
     1.000,1.000,1.000,0.028,1.000,1123.000,492.000,6.000,0.000,42.000:
0000
0000
0000
0000
,
0000
0000
0000
0000
,
0000
0000
0000
0000
,
1010
0000
0101
0000
0010
0100
0010
0100
0010
0000
1001
0000
0110
0000
1010
0100
,
0011
0000
0000
0000
0011
0000
0100
0000
1010
0000
0000
0000
1000
0100
1000
0000
0100
0000
1000
0000
0100
0000
0000
0000
0101
0000
0000
0000
0110
0000
0000
0000
,
1010
0000
0010
1000
0101
0000
0011
0100
1010
0000
0110
0001
1010
0000
0110
0001
,
1010
0000
1010
0100
1010
0000
0011
0100
1100
0000
0101
0010
1100
0000
0110
0001
,
1010
0000
0110
0001
0110
0000
0110
1000
0101
0000
0011
0010
1100
0000
0011
0100
,
1010
0000
1100
0100
0011
0000
0101
0010
1100
0000
0110
1000
0011
0000
0110
0001
,
1010
0000
0110
1000
1100
0000
0011
0100
0011
0000
0110
1000
0110
0000
0110
0001
,
1010
0000
1100
0011
1100
0011
1100
0011
1100
0011
2200
0000
0000
0000
0000
0000
,
3300
1011
0000
0100
0000
0010
0000
0001
0000
0100
0000
0010
0000
0100
0000
0010
,
0000
0100
0000
0000
0000
0110
0000
0000
0000
1001
0000
0000
0000
0000
0000
0000
,
0000
0110
0000
1000
0000
0001
0000
0100
0000
0001
0000
1000
0000
0010
0000
0100
,
0010
0001
0010
0100
1000
0100
0010
0001
0010
0100
1000
0100
0010
0001
0010
0100
,
1000
0101
0000
0000
0000
0110
0000
1001
0000
0110
0000
0000
0000
0110
0000
1100
,
0000
0011
0000
0110
0000
1100
0000
0101
0000
1010
0000
0000
0000
0000
0000
0000
,
0000
0101
0000
0000
0000
0110
0000
0000
0000
1001
0000
0101
0000
1010
0000
0110
,
0000
1001
0100
0010
0001
0010
0100
1000
0000
0010
0100
0010
0100
0010
0100
0010
,
0100
1001
0000
0100
0000
0101
0000
0010
0000
1010
0000
0100
0000
0101
0000
0010
,
0000
1101
0000
0010
0000
1110
0000
0001
0000
1011
0000
0100
0000
0101
0000
0010
,
0000
1010
0000
0100
0000
0101
0000
0010
0000
0110
0000
1000
0000
0101
0000
0010
,
0000
0110
0001
0010
0100
1000
0100
0010
0001
0010
0100
1000
0100
0010
0001
0010
,
0100
1001
0000
0010
0000
0101
0000
0010
0000
1010
0000
0100
0000
0101
0000
0010
,
0000
1010
0000
0001
0000
0110
0000
1000
0000
0101
0000
0010
0000
1100
0000
0000
,
0000
1001
0000
0101
0000
1010
0000
0110
0000
1001
0000
0110
0000
1001
0000
0110
,
0000
1111
1000
0001
1000
0001
1000
0001
1000
0001
1000
0001
1000
0001
0000
1000
,
0000
0101
0000
0010
0000
1010
0000
0100
0000
0101
0000
0010
0000
1100
0000
0100
,
0000
0011
0000
0100
0000
1010
0000
0100
0000
0101
0000
0010
0000
1100
0000
1000
,
0000
0101
0000
0001
0000
0110
0000
1000
0000
0101
0000
0010
0000
1010
0000
0100
,
0000
0101
0000
0010
0100
1010
0000
0100
0010
0101
0000
0010
0000
0011
0000
0100
,
0000
1010
0000
0100
0000
0101
0000
0010
0000
1010
0000
0100
0000
0101
0000
0010
,
0000
0101
0000
0010
0000
1100
0000
0010
0000
0101
0000
0010
0000
1100
0000
1000
,
0000
0101
0000
0001
0000
0110
0000
1000
0000
0101
0000
0010
0000
1010
0000
0100
,
0000
0101
0000
0010
0000
0110
0000
1000
0000
0110
0001
0010
0100
1000
0000
0100
,
0000
0101
0000
0010
0000
1100
0000
1000
0000
0101
0000
0001
0000
0110
0000
1000
,
0000
0101
0000
0010
0000
0110
0000
1000
0000
0101
0000
0010
0000
1010
0000
0100
,
0000
0101
0000
0010
0000
1010
0000
0100
0000
0101
0000
0010
0000
1010
0000
0100
,
0000
0101
0000
0010
0000
1010
0000
0100
0010
0101
0000
0010
0100
1010
0000
0100
,
0000
0101
0000
0010
0000
1010
0000
0100
0000
0101
0000
0010
0000
0101
0000
0010
,
0000
1010
0000
0100
0000
0101
0000
0010
0000
1010
0000
0100
0000
0101
0000
0010
,
0000
1010
0000
0100
0000
0011
0000
0100
0000
1010
0000
0001
0000
1010
0000
0100
,
0000
0111
0001
0010
0100
1110
0100
0010
0001
0111
0100
1000
0100
1110
0001
0010
,
0100
1010
0000
0100
0000
0101
0000
0010
0000
1010
0000
0100
0000
0011
0000
0001
,
0000
1010
0000
0100
0000
0101
0000
1000
0000
0110
0000
0001
0000
1010
0000
0100
,
0000
0101
0000
0010
0000
0110
0000
1010
0000
0100
0000
0101
0000
0010
0000
1010
,
0000
0100
0010
0001
0010
0100
1000
0100
0010
0001
0010
0100
0000
0010
0001
0010
,
0100
1010
0000
0100
0000
0101
0000
0010
0000
0011
0000
0100
0000
1010
0000
0100
,
0000
0101
0000
0010
0000
0101
0000
0010
0000
1100
0000
1001
0000
0010
0000
0101
,
0000
0010
0000
1010
0000
0100
0000
0101
0000
0010
0000
1010
0000
0001
0000
0110
,
0000
1000
0000
0101
0000
0010
1000
0100
0010
0001
0010
0100
0000
0100
0010
0001
,
0010
1100
0000
0010
0000
0101
0000
0010
0000
1010
0000
0100
0000
0011
0000
0100
,
0000
1110
0000
0100
0000
0111
0000
0010
0000
1110
0000
0100
0000
0101
0000
0010
,
0000
1010
0000
0100
0000
0101
0000
0010
0000
1010
0000
0100
0000
1100
0000
0010
,
1000
0101
0010
0001
0100
1010
0100
0001
0010
0100
0010
0100
0000
0001
0010
0101
,
0000
0010
0000
1100
0000
1000
0000
0101
0000
0001
0000
0110
0000
1000
0000
0101
,
0000
0010
0000
0110
0000
1000
0000
0101
0000
0010
0000
1010
0000
0100
0000
0101
,
0000
0010
0000
1010
0000
0100
0000
0101
0000
0010
0000
1010
0000
0100
0000
0101
,
0000
0010
0100
0010
0100
0010
0100
0010
0100
0010
0100
0010
0100
0010
0100
0010
,
0100
0010
0000
0110
0000
0000
0000
0110
0000
0000
0000
1100
0000
0000
0000
0011
,
0000
0000
0000
1100
0000
0110
0000
0011
0000
0110
0000
1100
0000
0110
0000
1001
,
0000
0110
0000
0101
0000
0000
0000
0110
0000
0000
0000
0011
0000
0000
0000
1100
,
0000
0000
0000
1001
0000
0000
0000
0110
0000
0101
0000
1001
0000
0110
0000
0101
,
0000
0000
0000
0110
0000
1000
0000
0010
0000
0100
0000
0000
0000
0011
0000
0100
,
0000
0010
0000
1000
0000
0000
0000
0101
0000
0010
0000
0100
0000
0001
0000
1010
,
0000
0000
0000
0101
0000
0010
0000
1010
0000
0100
0000
0101
0000
0010
0000
1100
,
0000
0101
0000
0010
0000
0110
0000
1000
0000
0101
0000
0001
0000
1100
0000
0010
,
0000
0111
1010
0100
0000
0011
0000
0000
0000
0110
0000
1000
0000
0010
0000
0100
,
0000
1111
1001
1001
1001
1001
1001
1001
1001
1021
0000
0130
0020
1001
0030
0100
,
0000
0011
0000
0100
0000
1010
0000
0100
0000
0111
0000
0100
0000
1110
0000
0100
,
0000
0111
0000
0010
0000
1010
0000
0001
0000
2010
0000
0101
3200
0010
0000
1310
,
0000
0001
0000
0101
0000
1010
0000
0100
0000
0101
0010
0100
1000
0100
0010
0001
,
0010
0100
1000
0100
0010
0001
0010
0100
1000
0101
0000
0010
0000
1010
0000
0100
,
0000
0101
0000
0010
0000
0110
0000
1000
0000
0101
0000
0010
0000
0110
0000
1000
,
0000
0101
0000
0010
0000
0101
0000
0010
0000
1100
0000
0010
0000
0101
0000
0010
,
0000
1100
0000
0100
0000
0011
0000
0100
0000
1010
0100
0010
0001
0010
0100
0010
,
0000
1101
1101
1101
1101
1101
1101
1101
1101
1101
0000
0100
0000
0010
0000
0001
,
0000
0100
0000
0010
0000
0100
0000
0010
0000
0100
0000
0000
0000
0110
0000
0000
,
0000
1001
0000
0000
0000
0000
0000
0000
0000
0110
0000
1000
0000
0001
0000
0100
,
0000
0001
0000
1000
0000
0010
0000
0100
0010
0001
0010
0100
1000
0100
0010
0001
,
0010
0100
1000
0100
0010
0001
0010
0100
1000
0101
0000
0000
0000
0110
0000
1001
,
0000
0110
0000
0000
0000
0110
0000
1100
0000
0011
0000
0110
0000
1100
0000
0101
,
0000
1010
0000
0000
0000
0000
0000
0000
0000
0101
0000
0000
0000
0110
0000
0000
,
0000
1001
0000
0101
0000
1010
0000
0110
0000
1001
0100
0010
0001
0010
0100
1000
,
0000
0010
0100
0010
0100
0010
0100
0010
0100
1001
0000
0100
0000
0101
0000
0010
,
0000
1010
0000
0100
0000
0101
0000
0010
0000
1101
0000
0010
0000
1110
0000
0001
,
0000
1011
0000
0100
0000
0101
0000
0010
0000
1010
0000
0100
0000
0101
0000
0010
,
0000
0110
0000
1000
0000
0101
0000
0010
0000
0110
0001
0010
0100
1000
0100
0010
,
0001
0010
0100
1000
0100
0010
0001
0010
0100
1001
0000
0010
0000
0101
0000
0010
,
0000
1010
0000
0100
0000
0101
0000
0010
0000
1010
0000
0001
0000
0110
0000
1000
,
0000
0101
0000
0010
0000
1100
0000
0000
0000
1001
0000
0101
0000
1010
0000
0110
,
0000
1001
0000
0110
0000
1001
0000
0110
0000
1111
1000
0001
1000
0001
1000
0001
,
0001
1000
0001
1000
0001
1000
0000
0001
0000
1010
0000
0100
0000
0101
0000
0010
,
0000
1010
0000
0100
0000
0011
0000
0010
0000
1100
0000
0010
0000
0101
0000
0010
,
0000
1010
0000
0100
0000
0011
0000
0001
0000
1010
0000
1000
0000
0110
0000
0001
,
0000
1010
0000
0100
0000
0101
0000
0010
0000
1010
0000
0100
0000
0101
0000
0010
,
0000
0000
1010
0000
0000
0000
0100
0000
0000
0000
1100
0000
0001
0010
0100
1000
0100
0010
0001
0000
0000
0000
0010
0000
0000
0000
1010
0000
0000
0000
0100
0000
,
0000
0101
0000
0010
0000
1010
0000
0100
0000
1010
0000
0100
0000
0011
0000
0100
,
0000
1010
0000
0100
0000
0011
0000
0001
0000
1010
0000
1000
0000
0110
0000
0001
,
0000
1010
0000
0100
0000
0101
0000
0010
0000
1010
0000
0100
0000
0110
0000
0001
,
0000
0110
1000
0100
0010
0001
0000
0010
0000
1010
0000
0100
0000
0011
0000
0001
,
0000
1100
0011
1100
0011
1100
0011
1100
0011
1100
0000
0100
0000
0110
0000
0001
,
0000
1010
0000
0100
0000
0101
0000
0010
0000
1010
0000
0100
0000
0101
0000
0010
,
0000
1010
0000
0100
0000
0101
0000
0010
0000
1010
0000
0100
0000
0101
0000
0010
,
0000
1010
0000
0100
0000
0101
0000
0010
0000
1010
0000
0100
0000
0101
0000
0010
,
0000
1010
0000
0100
0000
1010
0000
0100
0000
0101
0000
0010
0000
1010
0000
0100
,
0000
0101
0000
0010
0000
1010
0000
0100
0000
0101
0000
0010
0000
1100
0000
0010
,
0000
0101
0000
1000
0000
0101
0000
0010
0000
1110
0000
0100
0000
0111
0000
0100
,
0000
1110
0000
0100
0000
0111
0000
0100
0000
0101
0000
0010
0000
1010
0000
0100
,
0000
0101
0000
0010
0000
1100
0000
1000
0000
0101
0000
0010
0000
1010
0000
0001
,
0000
0110
0000
1000
0000
0101
0000
0010
0000
1010
0000
0100
0000
0110
0000
0101
,
0000
0010
0000
1010
0000
0100
0000
0101
0000
0010
0000
1010
0000
0010
0000
1010
,
0000
1000
0000
0011
0000
0100
0000
1100
0000
0101
0000
0010
0000
1010
0000
0100
,
0000
1100
0000
0010
0000
0101
0000
0010
0000
1010
0000
0100
0000
1010
0000
0100
,
0000
0011
0000
1001
0000
0100
0000
1010
0000
0100
0000
0101
0000
0010
0000
1010
,
0000
0100
0000
0101
0000
1000
0000
0110
0000
0001
0000
1010
0000
0100
0001
0010
,
0100
1000
0100
0000
0000
0010
0100
1000
0100
0011
0000
0100
0000
1010
0000
0100
,
0000
0101
0000
0010
0000
1100
0000
0010
0000
0111
0000
0010
0000
1110
0000
0100
,
0000
0111
0000
0010
0000
1010
0000
0100
0000
0101
0000
0010
0000
1010
0000
0100
,
0000
0101
0000
0010
0000
0011
0000
0100
0001
1010
0100
1000
0010
0101
0010
1000
,
0100
0010
0100
0010
0000
1000
0100
1010
0000
0100
0000
0011
0000
0001
0000
1010
,
0000
1000
0000
0110
0000
0001
0000
1010
0000
0100
0000
0110
0000
0001
0000
1010
,
0000
0100
0000
0101
0000
0010
0000
1010
0000
0100
0000
0101
0000
0010
0000
1010
,
0000
0100
0000
0101
0000
0100
0000
0101
0000
0010
0000
1010
0000
0100
0000
0101
,
0000
0010
0000
1010
0000
0100
0000
0101
0000
0100
0010
0100
0010
0100
0010
0100
,
0010
0100
0010
0100
0010
0100
0010
0100
0010
1111
0000
0000
0000
0000
0000
0000
;

//---------------dance-single - ----------------
#NOTES:
     dance-single:
     :
     Easy:
     1:
     0.000,0.000,0.000,0.000,0.000,0.000,0.000,0.000,0.000,0.000:
0000
0000
0000
0000
;
